Information of news
  • Views: 56
  • Author: lilom
  • Date: 30-03-2013, 15:56
 (Votes #: 0)

TotalTraining - MOTU Digital Performer: Introduction

Category: Tutorial

Download Now

TotalTraining - MOTU Digital Performer: Introduction

TotalTraining - MOTU Digital Performer: Introduction
English | Audio: aac, 44100 Hz, stereo (eng)
MOV | Video: h264, yuv420p, 960x540, 10.00 fps(r) (eng) | 393 MB
Genre: Video Training

In this tutorial Les Brockmann, a veteran audio engineer, demonstrates that even though Digital Performer was originally designed for professional studio production, film scoring, live performance and remixing, it can be easily used for professional results for all levels of users from home recording enthusiasts to recording studios.

Les demonstrates how to record live instruments, record and import MIDI files, sequence and how you can edit your finished project for export in many different file formats. By the time this tutorial is completed you will understand topics like file management, mixing audio, using video, tempo and timing.

1. Quick Start Guide
2. Digital Performer File Management
3. Digital Performer Screen Features and UI
4. Tempo, Metronome and Timing
5. Navigating in Digital Performer
6. Editing in Digital Performer
7. All about Audio in Digital Performer
8. Mixing Audio in Digital Performer
9. Using Video in Digital Performer
10. Learning More about Digital Performer

Mediainfo:

Format : MPEG-4
Format profile : QuickTime
Codec ID : qt
File size : 38.0 MiB
Duration : 14mn 4s
Overall bit rate : 378 Kbps
Encoded date : UTC 2008-11-20 20:33:33
Tagged date : UTC 2008-11-20 20:33:36
Writing library : Apple QuickTime
Video #2
ID : 2
Format : AVC
Format/Info : Advanced Video Codec
Format profile : [email protected]
Format settings, CABAC : No
Format settings, ReFrames : 2 frames
Codec ID : avc1
Codec ID/Info : Advanced Video Coding
Duration : 14mn 4s
Bit rate mode : Variable
Bit rate : 242 Kbps
Width : 960 pixels
Height : 540 pixels
Display aspect ratio : 16:9
Frame rate mode : Constant
Frame rate : 10.000 fps
Resolution : 24 bits
Colorimetry : 4:2:0
Scan type : Progressive
Bits/(Pixel*Frame) : 0.047
Stream size : 24.4 MiB (64%)
Encoded date : UTC 2008-11-20 20:33:25
Tagged date : UTC 2008-11-20 20:33:36
colour_primaries : BT.709-5, BT.1361, IEC 61966-2-4, SMPTE RP177
transfer_characteristics : BT.709-5, BT.1361
matrix_coefficients : BT.709-5, BT.1361, IEC 61966-2-4 709, SMPTE RP177
Audio #1
ID : 1
Format : AAC
Format/Info : Advanced Audio Codec
Format version : Version 4
Format profile : LC
Format settings, SBR : No
Codec ID : 40
Duration : 14mn 4s
Bit rate mode : Constant
Bit rate : 92.8 Kbps
Nominal bit rate : 96.0 Kbps
Channel(s) : 2 channels
Channel positions : L R
Sampling rate : 44.1 KHz
Resolution : 16 bits
Stream size : 9.34 MiB (25%)
Encoded date : UTC 2008-11-20 20:33:25
Tagged date : UTC 2008-11-20 20:33:36

TotalTraining - MOTU Digital Performer: Introduction


Direct Download


Tags: TotalTraining, Digital, Performer, Introduction


TotalTraining - MOTU Digital Performer: Introduction Fast Download via Rapidshare Hotfile Fileserve Filesonic Megaupload, TotalTraining - MOTU Digital Performer: Introduction Torrents and Emule Download or anything related.
Dear visitor, you went to website as unregistered user.
We encourage you to Register or Login to website under your name.

Add comments

Name:*
E-Mail:*
Comments:
Enter Code: *